動漫花園資源網logo

 
 

會員頭像

發佈人:jackieliiy

訂閱發佈人:

發佈組LOGO

所屬發佈組:魔星字幕团

訂閱發佈組:

[MagicStar] 也许能听见恋爱 / Maybe 恋が聴こえる EP19 [WEBDL] [1080p] [U-NEXT]【生】【附日字】

簡介: 

HD 1080p from U-NEXT.
Japanese subtitles added.


We are planning to upload all U-NEXT Dramas and Movies, we need your Support!


Support Us

Ali (Zhifubao / QR code): http://i.ibb.co/FWV2ggm/1660626347125.png
PayPalMe: http://www.paypal.com/paypalme/sakuragikenji
ETH (ERC20): 0xea3286E176099E8C9aBaf25A0edf231374C04E89
USDT (BTC / OMNI): 1Lemw6fu5vG3NdvWGxDxsPX7T7yUb3rNzu


alt text
alt text

General Unique ID                      : 153899615205161951994780454938405949077 (0x73C7FCDC38F91D88EEB08FE5668ACE95) Complete name                  : Maybe.Koi.ga.Kikoeru.EP19.1080p.U-NEXT.WEB-DL.AAC2.0.H.264-MagicStar.mkv Format                         : Matroska Format version                 : Version 4 File size                      : 359 MiB Duration                       : 11 min 55 s Overall bit rate               : 4 211 kb/s Frame rate                     : 29.970 FPS Encoded date                   : 2023-11-15 17:14:34 UTC Writing application            : mkvmerge v50.0.0 ('Awakenings') 64-bit Writing library                : libebml v1.4.0 + libmatroska v1.6.2 Cover                          : Yes Attachments                    : cover.png  Video ID                             : 1 Format                         : AVC Format/Info                    : Advanced Video Codec Format profile                 : Main@L4 Format settings                : CABAC / 3 Ref Frames Format settings, CABAC         : Yes Format settings, Reference fra : 3 frames Codec ID                       : V_MPEG4/ISO/AVC Duration                       : 11 min 55 s Bit rate                       : 4 052 kb/s Width                          : 1 920 pixels Height                         : 1 080 pixels Display aspect ratio           : 16:9 Frame rate mode                : Constant Frame rate                     : 29.970 (29970/1000) FPS Color space                    : YUV Chroma subsampling             : 4:2:0 Bit depth                      : 8 bits Scan type                      : Progressive Bits/(Pixel*Frame)             : 0.065 Stream size                    : 345 MiB (96%) Writing library                : x264 core 164 Encoding settings              : cabac=1 / ref=3 / deblock=1:-1:-1 / analyse=0x1:0x111 / me=hex / subme=4 / psy=1 / psy_rd=1.00:0.15 / mixed_ref=0 / me_range=16 / chroma_me=1 / trellis=1 / 8x8dct=0 / cqm=0 / deadzone=21,11 / fast_pskip=1 / chroma_qp_offset=-1 / threads=12 / lookahead_threads=3 / sliced_threads=0 / nr=0 / decimate=1 / interlaced=0 / bluray_compat=0 / constrained_intra=0 / bframes=2 / b_pyramid=0 / b_adapt=2 / b_bias=0 / direct=3 / weightb=1 / open_gop=0 / weightp=1 / keyint=60 / keyint_min=31 / scenecut=0 / intra_refresh=0 / rc_lookahead=20 / rc=2pass / mbtree=1 / bitrate=4052 / ratetol=1.0 / qcomp=0.60 / qpmin=0 / qpmax=69 / qpstep=4 / cplxblur=20.0 / qblur=0.5 / vbv_maxrate=8050 / vbv_bufsize=8050 / nal_hrd=none / filler=0 / ip_ratio=1.40 / aq=1:1.00 Language                       : English Default                        : Yes Forced                         : No Color range                    : Limited Color primaries                : BT.709 Transfer characteristics       : BT.709 Matrix coefficients            : BT.709  Audio ID                             : 2 Format                         : AAC LC Format/Info                    : Advanced Audio Codec Low Complexity Codec ID                       : A_AAC-2 Duration                       : 11 min 55 s Bit rate                       : 128 kb/s Channel(s)                     : 2 channels Channel layout                 : L R Sampling rate                  : 48.0 kHz Frame rate                     : 46.875 FPS (1024 SPF) Compression mode               : Lossy Stream size                    : 10.9 MiB (3%) Title                          : 日本語 [オリジナル] Language                       : Japanese Default                        : Yes Forced                         : No

會員專用連接: [MagicStar] 也许能听见恋爱 / Maybe 恋が聴こえる EP19 [WEBDL] [1080p] [U-NEXT]【生】【附日字】

Magnet連接: magnet:?xt=urn:btih:DMYJCAFMA6HVPIUV66WET32BOG2TKCP7

Magnet連接typeII: magnet:?xt=urn:btih:1b309100ac078f57a295f7ac49ef4171b53509ff

在线播放: 保存至云端 ?

彈幕播放連接: ddplay:magnet:?xt=urn:btih:DMYJCAFMA6HVPIUV66WET32BOG2TKCP7 播放器官方下載地址

外部搜索連接: 從谷歌搜索資源種子


  • mkv[MagicStar] Maybe Koi ga Kikoeru EP19 [WEBDL] [1080p] [U-NEXT] [JPN_SUB]/Maybe.Koi.ga.Kikoeru.EP19.1080p.U-NEXT.WEB-DL.AAC2.0.H.264-MagicStar.mkv 358.9MB
  • srt[MagicStar] Maybe Koi ga Kikoeru EP19 [WEBDL] [1080p] [U-NEXT] [JPN_SUB]/Maybe.Koi.ga.Kikoeru.EP19.1080p.U-NEXT.WEB-DL.AAC2.0.H.264-MagicStar.srt 13.6KB

***查看評論*** 請注意評論內容可能包含劇透