動漫花園資源網logo

 
 

會員頭像

發佈人:jackieliiy

訂閱發佈人:

發佈組LOGO

所屬發佈組:魔星字幕团

訂閱發佈組:

[MagicStar] 我养了个猫少年 / 猫カレ -少年を飼う- EP06 [HDTV] [1080p] [BS-TX]【生】【附日字】

簡介: 

HD 1080p from BS TV Tokyo.
Japanese subtitles added.
Note:
Providing Japanese subtitles and encoded sources of TV Tokyo dramas as a reference might be a good start, but we don’t know how long we can continue, it depends on your support. So…


Support Us

Ali (Zhifubao / QR code): http://i.ibb.co/FWV2ggm/1660626347125.png
PayPalMe: http://www.paypal.com/paypalme/sakuragikenji
ETH (ERC20): 0xea3286E176099E8C9aBaf25A0edf231374C04E89
USDT (BTC / OMNI): 1Lemw6fu5vG3NdvWGxDxsPX7T7yUb3rNzu


alt text
alt text

General Unique ID                      : 187003837438459634590433495755883404540 (0x8CAFA107B43FD9AC80B57B22D8C9DCFC) Complete name                  : Nekokare.Shounen.wo.Kau.EP06.1080p.BS-TX.HDTV.H264.AAC-MagicStar.mkv Format                         : Matroska Format version                 : Version 2 File size                      : 575 MiB Duration                       : 23 min 15 s Overall bit rate               : 3 458 kb/s Frame rate                     : 29.970 FPS Encoded date                   : 2023-11-14 23:31:00 UTC Writing application            : mkvmerge v8.5.2 ('Crosses') 32bit Writing library                : libebml v1.3.3 + libmatroska v1.4.4  Video ID                             : 1 Format                         : AVC Format/Info                    : Advanced Video Codec Format profile                 : [email protected] Format settings                : CABAC / 4 Ref Frames Format settings, CABAC         : Yes Format settings, Reference fra : 4 frames Codec ID                       : V_MPEG4/ISO/AVC Duration                       : 23 min 14 s Bit rate                       : 3 264 kb/s Width                          : 1 920 pixels Height                         : 1 080 pixels Display aspect ratio           : 16:9 Frame rate mode                : Constant Frame rate                     : 29.970 (30000/1001) FPS Color space                    : YUV Chroma subsampling             : 4:2:0 Bit depth                      : 8 bits Scan type                      : Progressive Bits/(Pixel*Frame)             : 0.053 Stream size                    : 543 MiB (94%) Writing library                : x264 core 148 r2638 7599210 Encoding settings              : cabac=1 / ref=3 / deblock=1:0:0 / analyse=0x3:0x113 / me=umh / subme=8 / psy=1 / psy_rd=1.00:0.00 / mixed_ref=0 / me_range=16 / chroma_me=1 / trellis=2 / 8x8dct=1 / cqm=0 / deadzone=21,11 / fast_pskip=1 / chroma_qp_offset=-2 / threads=24 / lookahead_threads=4 / sliced_threads=0 / nr=0 / decimate=1 / interlaced=0 / bluray_compat=0 / constrained_intra=0 / bframes=3 / b_pyramid=2 / b_adapt=2 / b_bias=0 / direct=3 / weightb=1 / open_gop=0 / weightp=2 / keyint=300 / keyint_min=29 / scenecut=40 / intra_refresh=0 / rc_lookahead=40 / rc=crf / mbtree=1 / crf=21.0 / qcomp=0.60 / qpmin=0 / qpmax=69 / qpstep=4 / ip_ratio=1.40 / aq=1:1.00 Default                        : Yes Forced                         : No  Audio ID                             : 2 Format                         : AAC LC Format/Info                    : Advanced Audio Codec Low Complexity Codec ID                       : A_AAC-2 Duration                       : 23 min 15 s Bit rate                       : 192 kb/s Channel(s)                     : 2 channels Channel layout                 : L R Sampling rate                  : 48.0 kHz Frame rate                     : 46.875 FPS (1024 SPF) Compression mode               : Lossy Stream size                    : 31.9 MiB (6%) Language                       : Japanese Default                        : Yes Forced                         : No

會員專用連接: [MagicStar] 我养了个猫少年 / 猫カレ -少年を飼う- EP06 [HDTV] [1080p] [BS-TX]【生】【附日字】

Magnet連接: magnet:?xt=urn:btih:HN3MXQRBKBO47TGU65ZISOTLSKNI6UCT

Magnet連接typeII: magnet:?xt=urn:btih:3b76cbc221505dcfccd4f772893a6b929a8f5053

在线播放: 保存至云端 ?

彈幕播放連接: ddplay:magnet:?xt=urn:btih:HN3MXQRBKBO47TGU65ZISOTLSKNI6UCT 播放器官方下載地址

外部搜索連接: 從谷歌搜索資源種子


  • mkv[MagicStar] Nekokare - Shounen wo Kau - EP06 [HDTV] [1080p] [BS-TX] [JPN_SUB]/Nekokare.Shounen.wo.Kau.EP06.1080p.BS-TX.HDTV.H264.AAC-MagicStar.mkv 575.1MB
  • srt[MagicStar] Nekokare - Shounen wo Kau - EP06 [HDTV] [1080p] [BS-TX] [JPN_SUB]/Nekokare.Shounen.wo.Kau.EP06.1080p.BS-TX.HDTV.H264.AAC-MagicStar.srt 17.5KB

***查看評論*** 請注意評論內容可能包含劇透